Download The Equalizer (2014) x 1600 (2160p) HDR 5.1 x265 10bit Phun Psyz Torrent | 1337x

The Equalizer (2014) x 1600 (2160p) HDR 5.1 x265 10bit Phun Psyz

  • Category Movies
  • Type UHD
  • Language English
  • Total size 3.0 GB
  • Uploaded By PhunPsyz
  • Downloads 636
  • Last checked 4 days ago
  • Date uploaded 1 week ago
  • Seeders 57
  • Leechers 18

Infohash : 61BCCE917367B90CC46E27B29BDA3DD66EF72494

www.imdb.com/title/tt0455944/

A man believes he has put his mysterious past behind him and has dedicated himself to beginning a new, quiet life. But when he meets a young girl under the control of ultra-violent Russian gangsters, he can't stand idly by - he has to help her.

Source: WhiteRhino (HDR) (22.4 GiB)



Format : Matroska
Format version : Version 4 / Version 2
File size : 3.00 GiB
Duration : 2 h 12 min
Overall bit rate : 3 249 kb/s

Video
ID : 1
Format : HEVC
Format/Info : High Efficiency Video Coding
Format profile : Main [email protected]@High
Codec ID : V_MPEGH/ISO/HEVC
Duration : 2 h 12 min
Bit rate : 2 865 kb/s
Width : 3 840 pixels
Height : 1 600 pixels
Display aspect ratio : 2.40:1
Frame rate mode : Constant
Frame rate : 23.976 (24000/1001) FPS
Color space : YUV
Chroma subsampling : 4:2:0
Bit depth : 10 bits
Bits/(Pixel*Frame) : 0.019
Stream size : 2.64 GiB (88%)
Writing library : x265 2.6:[Windows][GCC 7.1.0][64 bit] 10bit

Audio
ID : 2
Format : AC-3
Format/Info : Audio Coding 3
Format settings, Endianness : Big
Codec ID : A_AC3
Duration : 2 h 12 min
Bit rate mode : Constant
Bit rate : 320 kb/s
Channel(s) : 6 channels
Channel positions : Front: L C R, Side: L R, LFE
Sampling rate : 48.0 kHz
Frame rate : 31.250 FPS (1536 SPF)
Bit depth : 16 bits
Compression mode : Lossy
Stream size : 302 MiB (10%)
Title : Surround
Language : English

Text
Language : English
Language : English
Language : English
Language : Arabic
Language : Chinese
Language : Chinese
Language : Czech
Language : Danish
Language : Dutch
Language : Finnish
Language : Estonian
Language : French
Language : German
Language : Greek
Language : Italian
Language : Japanese
Language : Korean
Language : Norwegian
Language : Polish
Language : Portuguese
Language : Portuguese
Language : Romanian
Language : Russian
Language : Slovak
Language : Spanish
Language : Spanish
Language : Swedish
Language : Thai
Language : Turkish
Language : French
Language : Japanese
Default : No
Forced : No

Files:

  • The Equalizer (2014) x 1600 (2160p) HDR 5.1 x265 10bit Phun Psyz.mkv (3.0 GB)

There are currently no comments. Feel free to leave one :)

Code:

  • udp://tracker.opentrackr.org:1337/announce
  • udp://public.popcorn-tracker.org:6969/announce
  • udp://tracker.leechers-paradise.org:6969/announce
  • udp://tracker.pirateparty.gr:6969/announce
  • udp://tracker.internetwarriors.net:1337/announce
  • udp://inferno.demonoid.pw:3391/announce
  • http://mgtracker.org:6969/announce
  • udp://tracker.coppersurfer.tk:6969/announce
  • udp://tracker.torrent.eu.org:451/announce
  • udp://tracker.tiny-vps.com:6969/announce