Download Geostorm(2017)1080p Blu-Ray Rip[DaScubaDude] Torrent | 1337x

Geostorm(2017)1080p Blu-Ray Rip[DaScubaDude]

  • Category Movies
  • Type HD
  • Language English
  • Total size 2.8 GB
  • Uploaded By dascubadude
  • Downloads 887
  • Last checked 1 hour ago
  • Date uploaded 5 months ago
  • Seeders 23
  • Leechers 10

Geostorm

Action

Gerard Butler playing a stubborn but charming satellite designer who, when the world’s climate-controlling satellites malfunction, has to work together with his estranged brother to save the world from a man-made storm of epic proportions. A trip into space follows, while on Earth a plot to assassinate the president begins to unfold.

Infohash : F99457A8646F0FCB30A3CB5FE671BDBA2471ECD9

Geostorm (2017)
PG-13 | 1h 49min | Action, Sci-Fi, Thriller | 20 October 2017 (USA)
When the network of satellites designed to control the global climate starts to attack Earth, it's a race against the clock for its creator to uncover the real threat before a worldwide Geostorm wipes out everything and everyone.
Director: Dean Devlin
Writers: Dean Devlin, Paul Guyot
Stars: Gerard Butler, Jim Sturgess, Abbie Cornish

[youtube]EuOlYPSEzSc[/youtube]

General
Complete name : Geostorm\Geostorm T00-1.m4v
Format : MPEG-4
Format profile : Base Media / Version 2
Codec ID : mp42 (isom/iso2/avc1/mp41)
File size : 2.77 GiB
Duration : 1 h 49 min
Overall bit rate mode : Variable
Overall bit rate : 3 630 kb/s
Movie name : Geostorm
Encoded date : UTC 2018-04-22 23:53:12
Tagged date : UTC 2018-04-22 23:53:12
Writing application : HandBrake 1.0.7 2017040900

Video
ID : 1
Format : AVC
Format/Info : Advanced Video Codec
Format profile : [email protected]
Format settings : CABAC / 4 Ref Frames
Format settings, CABAC : Yes
Format settings, RefFrames : 4 frames
Codec ID : avc1
Codec ID/Info : Advanced Video Coding
Duration : 1 h 49 min
Bit rate : 3 463 kb/s
Width : 1 920 pixels
Height : 800 pixels
Display aspect ratio : 2.40:1
Frame rate mode : Variable
Frame rate : 23.976 (24000/1001) FPS
Minimum frame rate : 23.974 FPS
Maximum frame rate : 23.981 FPS
Color space : YUV
Chroma subsampling : 4:2:0
Bit depth : 8 bits
Scan type : Progressive
Bits/(Pixel*Frame) : 0.094
Stream size : 2.64 GiB (95%)
Writing library : x264 core 148 r2708 86b7198
Encoding settings : cabac=1 / ref=2 / deblock=1:0:0 / analyse=0x1:0x111 / me=hex / subme=6 / psy=1 / psy_rd=1.00:0.00 / mixed_ref=1 / me_range=16 / chroma_me=1 / trellis=1 / 8x8dct=0 / cqm=0 / deadzone=21,11 / fast_pskip=1 / chroma_qp_offset=-2 / threads=3 / lookahead_threads=1 / sliced_threads=0 / nr=0 / decimate=1 / interlaced=0 / bluray_compat=0 / constrained_intra=0 / bframes=3 / b_pyramid=2 / b_adapt=1 / b_bias=0 / direct=1 / weightb=1 / open_gop=0 / weightp=1 / keyint=240 / keyint_min=24 / scenecut=40 / intra_refresh=0 / rc_lookahead=30 / rc=crf / mbtree=1 / crf=22.0 / qcomp=0.60 / qpmin=0 / qpmax=69 / qpstep=4 / vbv_maxrate=20000 / vbv_bufsize=25000 / crf_max=0.0 / nal_hrd=none / filler=0 / ip_ratio=1.40 / aq=1:1.00
Encoded date : UTC 2018-04-22 23:53:12
Tagged date : UTC 2018-04-22 23:53:12
Color range : Limited
Color primaries : BT.709
Transfer characteristics : BT.709
Matrix coefficients : BT.709
Menus : 3

Audio
ID : 2
Format : AAC
Format/Info : Advanced Audio Codec
Format profile : LC
Codec ID : mp4a-40-2
Duration : 1 h 49 min
Bit rate mode : Variable
Bit rate : 160 kb/s
Channel(s) : 2 channels
Channel positions : Front: L R
Sampling rate : 48.0 kHz
Frame rate : 46.875 FPS (1024 SPF)
Compression mode : Lossy
Stream size : 125 MiB (4%)
Title : Stereo / Stereo
Language : English
Default : Yes
Alternate group : 1
Encoded date : UTC 2018-04-22 23:53:12
Tagged date : UTC 2018-04-22 23:53:12
Menus : 3

Menu
ID : 3
Codec ID : text
Duration : 1 h 49 min
Language : English
Encoded date : UTC 2018-04-22 23:53:12
Tagged date : UTC 2018-04-22 23:53:12
Menu For : 1,2
00:00:00.000 : Chapter 1
00:08:33.972 : Chapter 2
00:16:52.053 : Chapter 3
00:27:20.556 : Chapter 4
00:39:13.268 : Chapter 5
00:48:47.925 : Chapter 6
01:00:24.830 : Chapter 7
01:11:01.174 : Chapter 8
01:19:14.959 : Chapter 9
01:30:08.570 : Chapter 10
01:40:25.853 : Chapter 11
Bit rate mode : VBR

Files:

Geostorm
  • screenshot695.jpg (26.8 KB)
  • screenshot697.jpg (32.7 KB)
  • screenshot698.jpg (42.6 KB)
  • screenshot699.jpg (51.2 KB)
  • Read me.rtf (1.3 MB)
  • Geostorm T00-1.m4v (2.8 GB)

There are currently no comments. Feel free to leave one :)

Code:

  • udp://tracker.openbittorrent.com:80/announce
  • UDP://TRACKER.LEECHERS-PARADISE.ORG:6969/ANNOUNCE
  • UDP://TRACKER.COPPERSURFER.TK:6969/ANNOUNCE
  • UDP://TRACKER.OPENTRACKR.ORG:1337/ANNOUNCE
  • UDP://TRACKER.ZER0DAY.TO:1337/ANNOUNCE
  • UDP://EDDIE4.NL:6969/ANNOUNCE
  • udp://tracker.opentrackr.org:1337/announce
  • udp://tracker.coppersurfer.tk:6969/announce
  • udp://9.rarbg.to:2710/announce