// //
Download Fruitvale Station (2013) (1080p Bluray x265 HEVC 10bit AAC 5 1 Tigole) [UTR] Torrent | 1337x

Fruitvale Station (2013) (1080p Bluray x265 HEVC 10bit AAC 5 1 Ti...

  • Category Movies
  • Type HEVC/x265
  • Language English
  • Total size 2.0 GB
  • Uploaded By uploadhero
  • Downloads 646
  • Last checked 4 weeks ago
  • Date uploaded 1 month ago
  • Seeders 6
  • Leechers 2

Fruitvale Station

Drama

The true story of Oscar, a 22-year-old Bay Area resident, who crosses paths with friends, enemies, family, and strangers on the last day of 2008.

Infohash : DE0EAB1A09AFED23AE62085E009D4EC61A92DEFD

Code:

Media Information


General

Format : Matroska
Format version : Version 4 / Version 2
File size : 1.98 GiB
Duration : 1h 25mn
Overall bit rate : 3 337 Kbps
Encoded date : UTC 2016-11-10 20:00:40
Writing application : mkvmerge v9.4.0 (\'Knurl\') 64bit
Writing library : libebml v1.3.4 + libmatroska v1.4.5



Video

ID : 1
Format : HEVC
Format/Info : High Efficiency Video Coding
Format profile : Main [email protected]/* */@Main
Codec ID : V_MPEGH/ISO/HEVC
Duration : 1h 25mn
Bit rate : 3 005 Kbps
Width : 1 920 pixels
Height : 1 080 pixels
Display aspect ratio : 16:9
Frame rate mode : Constant
Frame rate : 23.976 (24000/1001) fps
Color space : YUV
Chroma subsampling : 4:2:0
Bit depth : 10 bits
Bits/(Pixel*Frame) : 0.060
Stream size : 1.78 GiB (90%)
Writing library : x265 2.1+36-d216cb9b3b47:[Windows][GCC 6.2.0][64 bit] 10bit
Encoding settings : wpp / ctu=64 / min-cu-size=8 / max-tu-size=32 / tu-intra-depth=1 / tu-inter-depth=1 / me=1 / subme=2 / merange=57 / no-rect / no-amp / max-merge=2 / temporal-mvp / no-early-skip / rskip / rdpenalty=0 / no-tskip / no-tskip-fast / strong-intra-smoothing / no-lossless / no-cu-lossless / no-constrained-intra / no-fast-intra / open-gop / no-temporal-layers / interlace=0 / keyint=250 / min-keyint=23 / scenecut=40 / bias-for-scenecut=0.05 / rc-lookahead=20 / lookahead-slices=6 / bframes=4 / bframe-bias=0 / b-adapt=2 / ref=3 / limit-refs=3 / no-limit-modes / weightp / no-weightb / aq-mode=1 / qg-size=32 / aq-strength=1.00 / cbqpoffs=0 / crqpoffs=0 / rd=3 / psy-rd=2.00 / rdoq-level=0 / psy-rdoq=0.00 / log2-max-poc-lsb=8 / limit-tu=0 / no-rd-refine / signhide / deblock=0:0 / sao / no-sao-non-deblock / b-pyramid / cutree / no-intra-refresh / rc=2 / pass / bitrate=3004 / qcomp=0.60 / qpmin=0 / qpmax=69 / qpstep=4 / cplxblur=20.0 / qblur=0.5 / ipratio=1.40 / pbratio=1.30
Default : Yes
Forced : No



Audio

ID : 2
Format : AAC
Format/Info : Advanced Audio Codec
Format profile : LC
Codec ID : A_AAC
Duration : 1h 25mn
Bit rate : 315 Kbps
Channel(s) : 6 channels
Channel positions : Front: L C R, Side: L R, LFE
Sampling rate : 48.0 KHz
Frame rate : 46.875 fps (1024 spf)
Compression mode : Lossy
Delay relative to video : 20ms
Stream size : 191 MiB (9%)
Language : English
Default : Yes
Forced : No



Text #1

ID : 3
Format : VobSub
Muxing mode : zlib
Codec ID : S_VOBSUB
Codec ID/Info : Picture based subtitle format used on DVDs
Duration : 1h 18mn
Bit rate : 6 832 bps
Count of elements : 1103
Stream size : 3.82 MiB (0%)
Language : English
Default : No
Forced : No



Text #2

ID : 4
Format : VobSub
Muxing mode : zlib
Codec ID : S_VOBSUB
Codec ID/Info : Picture based subtitle format used on DVDs
Duration : 1h 19mn
Bit rate : 6 245 bps
Count of elements : 1026
Stream size : 3.54 MiB (0%)
Language : Spanish
Default : No
Forced : No



Text #3

ID : 5
Format : VobSub
Muxing mode : zlib
Codec ID : S_VOBSUB
Codec ID/Info : Picture based subtitle format used on DVDs
Duration : 1h 19mn
Bit rate : 3 481 bps
Count of elements : 711
Stream size : 1.99 MiB (0%)
Language : Dutch
Default : No
Forced : No



Menu

00:00:00.000 : en:Chapter 01
00:05:00.049 : en:Chapter 02
00:09:59.974 : en:Chapter 03
00:14:59.773 : en:Chapter 04
00:20:00.365 : en:Chapter 05
00:24:59.873 : en:Chapter 06
00:29:59.964 : en:Chapter 07
00:34:59.806 : en:Chapter 08
00:40:00.106 : en:Chapter 09
00:44:59.863 : en:Chapter 10
00:49:59.871 : en:Chapter 11
00:55:00.005 : en:Chapter 12
00:59:59.846 : en:Chapter 13





Code:

Source Information

Complete name : title00.mkv
File size : 17.0 GiB
Duration : 1h 25mn
Overall bit rate mode : Variable
Overall bit rate : 28.6 Mbps


Files:

Fruitvale Station 2013 (1080p Bluray x265 HEVC 10bit AAC 5.1 Tigole)
  • Fruitvale Station 2013 (1080p x265 10bit Tigole).mkv (2.0 GB)

Comments

Code:

  • http://explodie.org:6969/announce
  • http://tracker.tfile.me/announce
  • http://bigfoot1942.sektori.org:6969/announce
  • udp://eddie4.nl:6969/announce
  • udp://tracker4.piratux.com:6969/announce
  • udp://tracker.trackerfix.com:80/announce
  • udp://tracker.pomf.se:80/announce
  • udp://torrent.gresille.org:80/announce
  • udp://9.rarbg.me:2710/announce
  • udp://tracker.leechers-paradise.org:6969/announce
  • udp://glotorrents.pw:6969/announce
  • udp://tracker.opentrackr.org:1337/announce
  • udp://tracker.blackunicorn.xyz:6969/announce
  • udp://tracker.internetwarriors.net:1337/announce
  • udp://p4p.arenabg.ch:1337/announce
  • udp://tracker.coppersurfer.tk:6969/announce
  • udp://9.rarbg.to:2710/announce
  • udp://tracker.openbittorrent.com:80/announce
  • udp://glotorrents.pw:6969/announce
  • udp://tracker.coppersurfer.tk:6969/announce
  • udp://tracker.opentrackr.org:1337/announce
  • udp://tracker.torrent.eu.org:451/announce